what is yuvj420p. 11025 Hz, mono, fltp Stream #0:1: Video: h264 (Main), yuvj420p(pc, bt709), 1920x1080 [SAR 189:190 DAR 168:95], 15 fps, 15 tbr, 90k tbn, Output #0, . The XDCAM-HD encoder would sometimes stop encoding on very complex content. Few things to note: REM basically comments out the line so if you want to change encoder to hevc_nvenc (H. \vcpkg integrate install PS D:\workspace\YUV420P_Player\vcpkg>. And yuvj420p is what I get when using the specific recording software that I'm using. request bitdepth during initialization. data [1], is 1024 bytes long (256 4-byte entries) and is formatted the same as in PIX_FMT_RGB32 described above (i. 这篇文章主要介绍了python将YUV420P文件转PNG图片格式的两种方法,帮助大家更好的理解和使用python,感兴趣的朋友可以 …. AV_PIX_FMT_YUV420P, /// /** * MPEG vs JPEG YUV range. Reference article ffmpeg encoding yuv420p …. The color space of the encoder is by default yuv420p. The palette is transported in AVFrame. ffmpeg -hwaccel qsv -s 1920x1080 -pix_fmt yuv420p -i test420p. Re-encode is same as 1 but set the correct in_range and out_range. and checked vdapu support option, I use vlc player with vdpau to get hardware decode. It works for converting from an AvFrame to a cv::Mat and the display appears …. @silverhikari you can try to pass DISABLE_FFMPEG to the qmake command and remove the ffmpeg dependency so it builds again (only image/video previews are lost). Additionally, change the preference order to user-specified range. V4L2_PIX_FMT_YUV420 looks right to …. The literal meaning of YUVJ420P is "YUV420P with JPEG color-range" (i. ImageFormat#YUV_420_888 is one of the most common image format supported by Android Cameras. Cb ( chrominance blue) channel. Second -vf "scale=in_range=mpeg:out_range=full" is setting the range to full. Hi , I am using generic camera integration. I passed SPS and PPS of incomming data in "read_packet". On the GX80, video is usually recorded in yuv420p, but video shot in stills mode (4k Photo Burst) is yuvj420p. I'm trying to perform an algorithm to convert from yuvj420p to yuv420p. may mean the subsampling is interstitial as opposed to horizontal. If you don't have a high-bit-depth video card and monitor, you then you can just make a temporary lossless file for viewing that will put the same pixels on your monitor: ffmpeg -i input. YUV420p: planar mode known planer, Y, U, V, respectively, and then a different plane, i. Trimming video - pixel format yuv420p is invalid or not supported #995. YUV420P又叫plane平面模式,Y , U , V分别在不同平面,也就是有三个平面,它是YUV标准格式4:2:0,主要分为:YU12和YV12 YU12格式 在 …. Most notably, the reds have become orange. So you can do hardware decoding like this: ffmpeg -c:v h264_v4l2m2m -i file. I created a y4m file for you to use in case you did not have a source media file: ice_qcif_15fps. These two additional transfers create latency due to the transfer time and will increase PCIe bandwidth occupancy. pro PREFIX="/usr" CONFIG+=DISABLE_FFMPEG Some ffmpeg functions that Qcma uses are either deprecated or removed so a code refactoring is needed for a proper fix. YUVJ420P uses the full range from 0 to 255. 从这里来看,貌似是yuvj420p表示的更准确一下。 区别的缘由 yuv420p对应的是电视。 yuvj420p对应的是显示器。 灰阶 何谓灰阶?. Attached videos were created with following commands: ffmpeg -f lavfi -i rgbtestsrc -pix_fmt yuvj420p -t 1 full_range. If you want to use HDR10, you need to choose YUV420 (4:2:0). 000000, bitrate: N/A Stream #0:0: Video: hevc (Main), yuvj420p(pc, bt709), 960x480, 30 fps, 30 tbr, 1k tbn Stream mapping: Stream #0:0 . You'll need High 10, High 4:2:2 or High 4:4:4 Predictive for 10-bit support. Why does FFmpeg decode a raw YUV420p video?Helpful? Please support me on Patreon: https://www. This allows the autodetected value to be overridden as well as allows forcing a specific value used for the output and encoder. My understanding is yuv420p uses color values from 16-235 whereas yuvj420p uses color values from 0-255. RawVideoPlayer is a simple utility intended for Video Engineers to view/compare the …. That's true, but since the decoder's output is RGB, that would mean 2 colorspace conversions; YV12-->RGB-->YV12. ffmpeg -f dshow -i video="Integrated Webcam":audio="Microphone (Realtek Audio)" -profile:v high -pix_fmt yuvj420p -level:v 4. 而实际 Qt 已经准备了 VideoOutput 类型可以很方便的调用系统摄像头和使用自定义数据流。. When you use -pix_fmt yuv420p, from a yuvj420p source - that tells ffmpeg to scale full range to limited range. I believe that libx264 is now capable of doing 10-bit 4:2:2 encodings, but I can't seem to get it to work. mp4 -vf "scale=1280:-1" -f matroska - | ffplay -i - FFmpegでエンコード ffmpeg -i input. 在yuv420中,一个像素点对应一个y,一个2x2的小方块对应一个u和v。对于所有yuv420图像,它们的y值排列是完 …. git built on Aug 8 2012 11:29:53 - ffmpeg pixel formats. YUV is a class of pixel formats used in video applications, including VLC media player. I *think* the "j" means JPEG, which. mpg -vf "select=1 " -f image2 …. Also this was all done on the same computer, same graphics card, same everything except the export settings in Premiere. mp4 -t 15 -global_quality 10 -c:v h264_qsv -q:v 20 -look_ahead 0 output. Pastebin is a website where you can …. I read a lot of posts, but not find related to planar format to Mat. We recommend using BrightWall to create a seamless-looping video wall. 使用d3d11做播放器,直接使用d3d11的接口来贴图,在yuv420p这里碰壁了。. mp4 130MB) with the following format. Closed ritesh94 opened this issue May 14, 2018 · 4 comments Closed Trimming video - pixel format yuv420p …. FFmpeg can help with this situation: ffmpeg -i input. Premiere's h264 exporter gave the most data rate. Got a few more mbits but not as near the restricted 15000 for a 720p. Is there any way to play with the compression in PyAV during encoding ? I'm trying to encode an av. mp4 The above converts a sequence of images ( ‘image001. In a web browser, visit the Dacast …. Dahua VTO2000A, SIP Firmware and Asterisk. A reference to this buffer is stored in the outpic member of the link hooked to the filter's output. But all the sample HD movies I found uses YUV420P …. It is used in many video and still image encoding schemes - both analog and digital - including in JPEG encoding. yuv — цветовая модель, в которой цвет состоит из трёх компонентов — яркость (y) и два цветоразностных компонента (u и v). Here is the command I'm using to setup FFMPEG: ffmpeg -re -i [YOUR FILE NAME HERE]-pix_fmt yuvj420p -x264-params keyint=48:min-keyint=48:scenecut=-1 -b:v 4500k -b:a 128k -ar 44100 -acodec aac -vcodec libx264 -preset medium -crf 28 -threads 4 -f flv rtmp:// [LIVE STREAM RTMP URL]. Supported pixel formats: yuv420p yuvj420p yuv422p yuvj422p yuv444p yuvj444p nv12 nv16 nv21 yuv420p10le yuv422p10le yuv444p10le nv20le 10-bit pixel formats are: yuv420p10le, yuv422p10le, yuv444p10le. Implementation process Use ffmpeg to get frame data. As a result, want it is yuv420p to rgb. [Ruimusume-Raws] Xenoblade2 - 06 - 第六話 傷 (1920x1080 HEVC-YUV420P). [lwobker:/dtop]$ ffmpeg -hide_banner -y -v verbose -i input. So know i can create a snapshot whenever i want. While stacktrace is rather intimidating the "width not divisible by 2" suggests that FFMpeg has a thing for odd width and height. Draw a colored box on the input image. Step 2: Connect to the GoPro camera and start the Camera Suite streaming server. When I encode with ffmpeg on Ubuntu 18, the default encoder h264 (libx264) uses by default the pixel format yuvj420p. exe or Powershell in Administrator Mode, then run AfterCodecs installer executable with the /S argument, for example in Powershell :. That script will automatically process every file in your Input folder and it will make Output folder for the new files. Do you have a video in MKV file and you can't open it because some program (like Sony Vegas Pro) doesn't support this …. PIX_FMT_YUV420P stores Y, then U (or Cb), then V (or Cr). I believe the only difference between yuv j 420p and yuv420p …. 색범위가 16-235가 되면, 완전한 검은색은 약간 …. “Higher frame rates means higher video quality. Shrinkwrap is a simple tool to shri. To remux H264, add -bsf:v h264_metadata=video_full_range_flag=0 (with -c:v copy). png -vcodec libx264 -pix_fmt yuv420p …. why would i choose to convert my videos to yuvj420p…. construct QVideoFrame with Format_YUV420P. For example, the desired 8M bitrate encoded as 98M. FFmpeg Formats Documentation. Restart VLC or start a new instance and by default, it …. png -vf scale=out_color_matrix=bt709:flags=full_chroma_int+accurate_rnd,format=yuv420p yuv420p_709. Fixes the capture part of #9374. Initialize encoder with fps and resolution using API in device. gopro_yuv420p_after_blender_render. yuvj420p的字面含义是“使用了jpeg颜色范围的yuv420p,像素使用表示颜色的数值范围发生了变化。 yuv420p的像素颜色范围是[16,235],16表示黑色,235表示白色 yuvj420p的像素颜色范围是[0,255]。0表示黑色,255表示白色. * - audio: the sample format, the value corresponds to enum AVSampleFormat. Use something that just copies the data you do want to keep. 264 Qucktimes with the “pixel format YUV420p…. When I've made videos, I've used sRGB and thrown the files at ffmpeg, not really caring about colorspace conversions that ffmpeg …. com is the number one paste tool since 2002. Post by Chris Share Hi, I'm currently trying to implement file export for the open source animation program Pencil2D. You can use the open source ffmpeg program to extract a frame to use as a thumbnail for a video. I wrote this code to convert between OpenCV frames and AVFrames. 0: Video: mjpeg, yuvj420p, 176x144, 25 tbr, 1200k tbn, 25 tbc At least one output file must be specified I quickly read the code, and I couldn't find any framerate information associated to an MJPEG stream/container, so ffmpeg is assuming the input framerate to be 25 by default when reading an MJPEG file. yuvj420p 简单来看,两个格式的唯一区别就是yuv420p的色彩值范围是[16, 235],而yuvj420p是[0,255]。有些硬件设备包括一些手机硬编码出来的可能是yuvj420p。. if you want to hardware decode, you need compile /usr/ports/graphics/mesadri driver by hand. And I tried to transcode it into mp4(h264) by ffmpeg with hwaccel My command is ffmpeg -y -hwaccel cuvid -c:v hevc_cuvid -i hev…. Actually this may very well be anyway some file size problem. 视频设置中yuvj420p和yuv420p有什么区别?yuvj420p和yuv420p都是什么意思、有什么作用》关键的问题是怎么把yuv420p的转成yuvj420p的,我的手机上能播放yuvj420p的、、、、、、、、、、 视频设置中yuvj420p和yuv420p …. 3 Operating system and version (e. With Octavia Spencer, Diana Silvers, Juliette Lewis, McKaley Miller. Zscale gets the data from the filter-chain that 'yuv420p' is requested after it and it does the conversion (I believe this is how it works, thus not using the ffmpeg scaler / swscale for this thing). Share Improve this answer edited Mar 29, 2014 at 15:56. Enumeration is a user defined datatype in C/C++ language. 422 is the plan size descriptions, p means planer, 16be means 16 bits per pixel big endian format. By using the ffmetadata muxer and demuxer it is possible to extract metadata from an input file to an ffmetadata file, and then transcode the file into an output file with the edited ffmetadata file. ffmpeg -video_size 1920x1080 -framerate 25 -pixel_format yuv420p -i input. I'm building a custom plugin that adds a comment to transcoded files and ends processing when that comment is found. FFmpeg-jwmod (3667522) libswscaleで出てたwarningの抑制. GStreamer: open source multimedia framework. Without the -hwaccel cuda -hwaccel_output_format cuda option, the decoded raw frames would be copied back to system memory via the PCIe bus, shown in figure 3. YUV is a color model typically used as part of a color image pipeline. However, on formats like webm (VP8) which don't support this …. Successfully parsed a group of options. The 10-bit formats also use 16 bits for each …. the argument is the delay in second between capture. to enable all available VAAPI encoders, decode …. PIX_FMT_YUV420P contains three channels (or components): Cr ( chrominance red) channel. Example for desktop using x11grab:. (6) Dual antenna, far and more stable . FFmpeg is able to use audio and video streams from many different sources. In this section, we list and have available as direct downloads, several free applications. With ffmpeg Resize the movie while keeping the aspect ratio FFmpegでアスペクト比を保ったまま動画をリサイズする FFmpegでプレビュー ffmpeg -i input. VideoFrame with a video format "yuv420p" into MJPEG using PyAV, using av. 重庆九格红浪火锅官网建成上线! 重庆九格红浪火锅官方网站建成上线! 九格红浪火锅品牌简介: 深耕餐饮行业,潜心重庆新派火锅打造二十年,重庆红鼎香餐饮管理有 …. Answer (1 of 3): Yes YouTube compress your videos. avctx->color_range to AVCOL_RANGE_JPEG. YCbCr 4:2:0 indicates a planar YCbCr colorspace where a 2x2 block of pixels in an image is represented by 4 Y samples, 1 for each pixel, but all 4 pixels share a Cb. the video output in its natural yuv420p …. If you are starting with either RGB images, a 10/12 bit format, or a yuvj420p format video as input, then with the libx264 codec, you would get a full range …. RGB (in the context of Shotcut and its libraries) are full range. 技术标签: 音视频编解码流媒体技术|视觉计算|图形处理实战教程golang ffmpeg yuv goav Stream #0:0: Video: h264 (High), yuvj420p(pc, bt709, progressive), . yuvj420p, so this doesn't make sense. My Google Pixel phone records MP4 H. In particular, YUV420 means that the U and V channels have half the resolution of the luma (Y) channel, in the horizontal …. The only supported colourspace for all mpeg4 asp encoder and decoder I know is yuv420p. Using Python and some graphing libraries, you can project the total number of confirmed cases of COVID-19, and also display the total …. by jonoomph » 2011-08-30T06:33:09+01:00. ffmpeg video stream summary of the video (attention to "yuvj420p(pc, smpte170m)"): Metadata: major_brand : isom minor_version : 512 compatible_brands: isomiso2avc1mp41 encoder : Lavf58. Step 3: Setting up FFMPEG and GO LIVE 🔴. Note the yuv420p(tv, progressive) in the last line. And I tried to transcode it into mp4(h264) by ffmpeg with hwaccel My command is ffmpeg -y -hwaccel cuvid -c:v hevc_cuvid -i hev… solved : using cuda for hwaccel option I have a video. If each component for each pixel is 1 byte, then each pixel is 3 bytes, each line is n * 3 bytes, and the entire image is m * n * 3 bytes. When you uploaded a video on YouTube, (Any kinds of videos) will be uploaded first …. The decoder claims to be decoding to AV_PIX_FMT_YUV420P …. CUDA GPU Accelerated h264/h265/HEVC Video Encodi…. /* * 函数名称: Frame2JPG * 功能描述: 将AVFrame (YUV420格式)保存为JPEG格式的图片 * 参 数: AVPacket packet av_read_frame读取的一包数据 * 参 数: AVFrame *pFrame 解码完的帧 * 参 数: stream_index 流下标,标记是视频流还是. 何度もこの問題に遭遇した 私はffmpegを再ストリームしようとしています. 265 the flag is changed to yuv420p …. it to something else, we can let libx264 handle the RGB case. Edit: See Wikipedias explanation for how the chroma subsampling affects the picture. -pix_fmt yuvj420p to the command, when encoding with libx264, can fix this. The example below shows: -i = Inputfile name. 在一些传统应用中,如果想使用 Qt 在 QWidget 或者 QML 中显示自定义的视频数据流,需要引入 OpenGL 来实现。. mp4 -vf "scale=oh*a:720" -movflags +faststart -pix_fmt yuv420p -c:v libx264 -crf 20 …. yuv420p is a chroma subsampling scheme, and the p stands for planar, not progressive. You have the notation backwards, although the processsing is the same. 원본 분석을 위한 첫 단계로 미디어인포 나 샤나인코더의 '파일 정보'로 동영상 정보를 파악하다 보면. There is a V4L2 M2M (memory to memory) interface that is used to access hardware encoders and decoders, and the Pi seems to have pretty good support for that now. 100 Input #0, rtsp, from 'rtsp://admin:[email protected] The clamping is what you are seeing for the changes in levels Some workarounds to bypass ffmpeg behaviour (clamping full range yuvj420p to yuv420p) would be to either strip the full range flag (using bitstream filters, or 3rd party tools), or -vf scale=in_range=pc:out_range=pc,format=yuv420p …. -pix_fmt yuvj420p and same measures as above for encoder + container. setting LA_ICQ and CQP parameters within ffmpeg?. PS4 Pro introduces 4K output, with settings for both 2160p YUV420 and 2160p RGB (recommended if your TV supports it) at up to 60 frames per second when using a supported 4K TV and Premium HDMI (aka HDMI 2. total frames per second by preset as number of concurrent transcodes increases: n vfast faster medium slower vslow 1 122. With ffmpeg and a decent GPU (like a Quadro P4000) the h265/HEVC encoder finaly gets a good speedboost with up to 90fps when encoding HD …. As always, backup your database before upgrading, see this. (v4l2cuda) Also a plane conversion sample using VIC. No accelerated colorspace conversion found from yuv420p to argb. A proper way of converting yuvj420p colorspace to yuv420p (AVC to HEVC reencoding) Description This is not a bug, this is a request for help. py example unless I switch the pixel format to codec. Hi! I'm using the VPU to decode HD movie and trying to display the movie by using glTexDirectVIVMap. I'm using AFTV2 with Kodi Krypton, when playing videos from Youtube, I see a lot of videos can't be played with hardware decoder, they are all played with "ff-h264 yuv420p…. Download ffmpeg and extract the "bin/ffpmpeg. I believe the only difference between yuv j 420p and yuv420p is that the former uses "Full" 0-255 color value range (also known as "PC", "JPEG" color range), while the latter uses "Limited" color range (16-235 = "TV" = "MPEG"). My inputs are RTSP and RTMP streams in AV_PIX_FMT_YUVJ420P format. I ran a test on a clip (prores 422) 10sec, etc. Windows10 환경에서 ffmpeg을 이용해서 mp4 파일을 실시간으로 읽고 트랜스코딩 해서 RTMP로 실시간 전송하는 방법을 알아본다. YUV420P与YUVJ420P_干煸四季豆123的博客. So anytime you see it say HDR Enabled, if you manually set it for 2160 RGB, it will downgrade the color to 8bit. 尝试添加这个标志: -vf "in_range=mpeg:out_range=full". If I export a video using hardware encoding, the final video is exported using yuv420p…. All pictures in the filter system are reference counted. in System variables locate and select Path row, click Edit and add value c:\ffmpeg\bin. I tried running the sample multi transcode as below. The command to do so is shown below –. mov file and the audio should be encoded as SOWT PCM for seamless audio. Fixed an issue that caused bad frame rate conversion on small fps difference between source and output. I'm leaving the old code here to avoid any confusion. (00_video_decode and 07_video_convert) DaneLLL May 6, 2020, 5:29pm #3. Even though a filter might need to convert to limited MPEG/broadcast range to do its processing, it will expand back to full range in RGB. It can be very time consuming to re-encode the correct stream. I verified that after applying the patch sws_getContext () does not fail. Input is wrongly flagged as full-range, I want to remux or re-encode in limited range. [libx265 @ 07973e20] Specified pixel format yuvj420p is invalid or not supported. y4m Create an animated AVIF image. Their circuitry is hardwired for yuv420p with MPEG/TV range. A lonely woman befriends a group of …. それが現代のブラウザーで再生可能である限り、私はそれがmjpegであるかどうかにかか …. shotcut February 25, 2022, 1:26am #2. Although Oculus Quest and Go can decode high-resolution video up to 5760x2880 / 30fps, some encoding workflows can result in the export of …. MEDIASUBTYPE_YV12 buffer to libav PIX_FMT_YUV420P AVFra…. [ffmpeg/video] hevc: Could not find ref with POC 23 Falling back to software decoding. 2010 May 25 — x264 won MSU Sixth MPEG-4 AVC/H. Try adding this flag: -vf "in_range=mpeg:out_range=full". I was referring to the sample specifically, since you said it was a problem, I've also seen youtube occasionally get it right, (like when I tried your sample , oddly enough). Moreover, your input file is encoded with profile High, which doesn't support 10-bit. 比如: Android系统的摄像头返回的图像格式NV21 X264编码需要的图像格式YUV420P Linux下摄像头返回的图像格式一般是YUYV GUI图形控 在图像处 …. They mention a specific Canon model, but my understanding is that yuvj420p is in much wider use than they indicate, including all new Canon and Nikon models. The file now simply has the pixel format yuv420p…. yuva422p16be YUV are luma and chroma planes. mkv ffplay -codec:v h264_v4l2m2m file. mp4 [h264 @ 00000000024f4b60] Reinit context to 1920x1088, pix_fmt: yuvj420p Input #0, mov,mp4,m4a,3gp,3g2,mj2, from 'input. Using the wrong range when converting to RGB can cause the video to look faded, or artificially color boosted. I am trying to change the container of a video acquired from an NVR using ffmpeg, but the output video is not playable by VLC or QuickTime. */ enum AVColorRange { AVCOL_RANGE_UNSPECIFIED = 0, AVCOL_RANGE_MPEG = 1, ///. Actually we can extract a video frame using only NVIDIA card via thumbnail_cuda filter. The "pixel format" or subsampling matters too: yuvj420p vs yuvj422p vs yuvj444p. Nice clean picture as expected. After attending Maker Fair 2016 my son wanted to build a racing quad-copter. [swscaler @ 0xbf2130]No accelerated colorspace conversion found from yuv420p to bgr24. I am looking to reduce the framerate of the video stream as …. To upload designs, you'll need to enable LFS and have an admin enable hashed storage. YUV formats fall into two distinct groups, the packed formats where Y, U (Cb) and V (Cr) samples are packed together into macropixels …. under video settings change from nv12 to rgb (you have ether 4:2:0, 4:4:4 or rgb here, no 4:2:2 so if you want to have 4:2:2 you have to convert by yourself) the under output settings use avdvanced, Recording-Type use custom output (ffmpeg) container format mkv or mp4. May 31, 2019 · Ma: Directed by Tate Taylor. I use this for zenphoto whereby I name the jpg file as the same name as the flv video to show a thumbnail on line. Currently, it seems that Blender incorrectly identifies, or treats, the yuvj420p format as if it was a yuv420p format, thus distorting the colors. ffmpeg YUV420P video frame rotation. YUVJ420P的字面含义是“使用了JPEG颜色范围的YUV420P,像素使用表示颜色的数值范围发生了变化。 YUV420p . This format is special in that that each image frame consists of three files, for each of the YUV420P …. mp4 -vf "scale=1280:-1" -movflags +faststart -pix_fmt yuv420p -c:v libx264 -crf 20 "output. Is there a proper way to convert to prevent this warning ? I tried : arr = frame. This is a bit of a leisurely post. XTx44/43, XDx34/33, HDx24, LS424, 4Kx42: Supports seamless video looping of. mp4': Metadata: major_brand : isom minor_version : 512 compatible_brands: isomiso2avc1mp41. mov - This is what the video clip above looks like, after being put through Blender. The difference between both formats are the range values: yuvj420p [0-255], and; yuv420p [16-239] I want to know how to adapt the values to the new range. yuv420p has the range 16-235 whereas yuvj420p has the full range, 0-255. Home; Blog; Documentation; Videos; Archive; Tags; Converting Yuv444 to Yuv420p with FFMPEG. Encoding using VAAPI - seems fairly straightforward, simply add codec …. [h264 @ 0x556bdcf902c0] Reinit context to 2560x1920, pix_fmt: yuvj420p [graph_1_in_0_1 @ 0x556bdd3182c0] tb:1/8000 samplefmt:s16 samplerate:8000 chlayout:0x4 [format_out_0_1 @ 0x556bdd318d80] auto-inserting filter 'auto_resampler_0' between the filter 'Parsed_anull_0' and the filter 'format_out_0_1' [auto_resampler_0 @ 0x556bdd31a2c0] ch:1 chl. yuvj420p(pc, bt709), 2704x1520 [SAR 1:1 DAR 169:95], 60541 kb/s, yuvj420p also, so there is no guesswork on behalf of the codec. jpg -c:v libx264 -vf "fps=5,scale=1920:1080" -pix_fmt yuv420p out. I separately constructed a QVideoSurfaceFormat for correct size and Format_YUV420P and passed as argument. YUV can also be defined using more than 8 bits per …. pixels use 0-255 range instead of 16-235 range, where 0 instead of 16 is black, and 255 instead of 235 is white). 使用“Bing”搜本站 使用“Google”搜本站 使用“百度”搜本站 站内搜索. python将YUV420P文件转PNG图片格式; opencv yuv420p转bgr; 将YUV420P图像水平镜像翻转——音视频(一) 音视频技术应用(14)- FFmpeg 转mp4 格式 为yuv, rgb 格式; 音视频技术应用(10)- 使用SDL 直接播放和渲染YUV文件; Qt 使用openGL 渲染YUV420P …. Later, the same image would be copied back to GPU memory via PCIe to encode on the GPU. Stream #0:0: Video: h264 (High), yuvj420p(pc, bt709, progressive), 640x480, 25 fps, 25 tbr, 1200k tbn, 50 tbc. I have a rtsp stream link this works in vlc player but when I tried to use with generic camera integration card. Stream #0:0(und): Video: h264 (High) (avc1 / 0x31637661), yuvj420p(pc), 1664x954 [SAR 1:1 DAR 832:477], 20875 kb/s, 60 fps, 60 tbr, 15360 tbn, 120 tbc (default) This also fails to load in Resolve. I also upgraded my resolve to v12. Cannot open audio codec when use ffmpeg. It costs a lot of time, and should be lose some quality because. The rendering profiles are grouped into categories. 使用 pygame 覆盖显示 YUV420p 会导致图像顶部出现绿色条. I have been using Tdarr since the end of last year but am looking into using it on Docker instead. How to use hevc_cuvid decoder to convert a yuvj420p format m…. i have some videos with the pixel format yuvj420p that when i play them with vlc and kodi it shows the colorspace which is slightly darker than yuv420p. Video sequencer does not recognize pixel format 'yuvj420p. DASH - encrypting and playing video with ClearKey (videojs) October 29, 2017. 069867 Bits Per Raw Sample 8 Disposition Default = 0. Either increase it or decrease time between keyframes. Greetings! I was wondering if ImageMagick++ has an easy way to convert RGB pixels into YUV420P (planar) values? I need to set the pixel data on a SDL_Overlay, which requires me to convert my Magick::Image pixel data into the YUV420P …. Prepare video data in YUV format and execute as below. It is used to assign names to the integral constants which makes a program …. convert yuvj420p to yuv420p (chrome playable!) mp4 video (eg: canon/nikon video). 与超过 800 万 开发者一起发现、参与优秀开源项目,私有仓库也完全免费 :). yuvj420p Level 31 Color Range pc Color Space bt709 Color Transfer bt709 Color Primaries bt709 Chroma Location left Refs 1 Is Avc false Nal Length Size 0 R Frame Rate 25/1 Avg Frame Rate 25/1 Time Base 1/90000 Start Pts 1971048054 Start Time 21900. So it looks like Handbrake is applying the yuvj420p -> yuvj420v conversion to a file that's already got a minimum black level of 18, which is pushing the black up to 38. yuvj420p => yuv420p (Y 0-255 => 16-235 CbCr 0-255 => 16-240 for 8bit). フルレンジからトランスコードでフルレンジのまま変換するにはレンジを明示する。yuv420pを指定しているがフルレンジフラグがつくのでyuvj420pになる。 ffmpeg -i input -vf scale=in_range=full:out_range=full,format=yuv420p …. [FFmpeg-user] Creating video from a lot of jpeg pictures Balogh László; Re: [FFmpeg-user] Creating video from a lot of jpeg p Paul B Mahol; Re: [FFmpeg-user] Creating video from a lot of jp. This camera seems to work in YUV420P …. yuv -pix_fmt nv12 carphone_qcif_nv12. Anyway, it is defined as allowed for AVC. Summary of the bug: libaom-av1 reduces brightness range by switching yuvj420p to yuv420p. ffmpeg -s 5 -i my_camera_video. I also added camera platform generic in configuration yml file still the same. For example for a target size of 1 GB (one giga byte, which is 8 giga bits) and 10 000 seconds of video (2 h 46 min 40 s), use a bitrate of 800 000 bit/s (800 kbit/s): ffmpeg …. mkv # convert between two container formats # (ffmpeg can guess the formats by the file extensions) $ ffmpeg -i input. go to FFmpeg builds web page, choose Windows 64-bit architecture, static linking and Download build. yuvj420p的像素颜色范围是[0,255]。0表示黑色,255表示白色. 版权声明: 本文内容由阿里云实名注册用户自发贡献,版权归原作者所有,阿里云开发者社区不拥有其著作权,亦不承担相应法律责任。 具体规则请查看 …. This table shows the various Video driver modules and which pixel formats they support. The problem is that the decoder can only output a handful of. avi to copy 10 seconds of A/V starting at 5 seconds into the input file. Chroma subsampling is the practice of encoding images by implementing less resolution for …. Merge an audio and video fileYou can also specify the -shortest switch to finish the encoding when the shortest clip ends. 120/': Metadata: title : SDP Descrption comment : SDP Description Duration: N/A, start: 1604569309. From the docs: in_range, out_range: Set in/output YCbCr sample range. Stream #0:0[0x41]: Video: h264 (High) (HDMV / 0x564D4448), yuvj420p(pc, bt709, progressive), 480x270 [SAR 46892:45837 DAR 750272:412533], 15 fps, 25 tbr, 90k tbn, 30 tbc. Re: YUV420P for ARToolKit >Uwe, I have successfully run your code and it works great, no problems >with image or colors. You can get the public key from any keyserver with the key id …. Encoding with ffmpeg and h264_omx in Pi4 doesn't work. 264 Video Codecs Comparison, with ~24% better encoding than second place. 265? Generally, newer video compression standards will offer performance advantages …. avconv -i 'rtsp://admin:[email protected] If not specified, the range depends on the pixel format. Event detection occurs on a low-res stream with a high-res (4k) stream capture occurring via monitor linking. FFmpeg is a free and open-source software project consisting of a suite of libraries and programs for handling video, audio, and other multimedia files and …. He did not want to buy a Ready To Fly (RTF) copter but rather a kit based on some recommendations from a pilot of the said show. Stream at 4K 30fps with Insta360 Pro 2's in-camera stitching directly to Facebook, YouTube and other supported VR live streaming platforms. avi -c:v rawvideo -pixel_format yuv420p …. What could be wrong with the configuration?. Unfortunately, ARM build does not have optimized colorspace. ffmpeg实现音视频编解码是非常常用的工具,视频解码出来的raw数据是yuv格式, …. mp4 -codec copy -pix_fmt yuv420p …. Décomposition d'une image en Y'UV. 早送りのスムーズな動画を作りたい (ffmpeg) -pix_fmtで指定できるやつの一覧. Then save, read Metadata in Lightroom and export again from Lightroom. the U (or Cb) plane at 1/4 size. The applications it supports range from simple Ogg/Vorbis playback, audio/video streaming to complex audio (mixing) and video (non-linear editing) processing. This at least shows that handling the yuvj420p is not a piece of cake, but somehow it is possible to fully utilize the GPU for optimum . 265/HEVC) add REM before SET encoder=h264_nvenc and remove REM for SET encoder=hevc_nvenc. No filters, rotation, or scaling applied. If you are running an older version, you will need to upgrade to 0. -c copy means use the copy codec, which doesn't encode or decode, but just copies the still-encoded data, ensuring zero loss. In this section, we list and have available as direct downloads, several. ffmpegはCPUが可能な限り最大の速度で次のフレームを読み取ろうとするので、このオプションなしでストリームを作ると早送りされた動画みたいになる. The chrominance is subsampled using the 420 scheme: Note: Be careful not to confuse this pixel format with PIX_FMT_YUVJ420P …. Else, if I set correct format which is YUV bypassing the check of image format before initializing surface I get a QVideoFrame with Format_YUV420P …. Pastebin is a website where you can store text online for a set period of time. This involves converting RGB (0 - 255) …. Re: Hardware encoding; hello_encode YUV420P issue. mp4': Metadata: title : Media Server encoder : Lavf58. At this time, yuv 4:2:0 with full range is signaled as yuvj420p upon decoding. It encodes a color image or video taking human perception into account, . Problem description: When I encode videos from my phone (yuvj420p) the result has blacks washed out and whites muted. this util feature: Convert I420 / YUV420 planar format data to rgb array; Convert YCrCb to RGB; example directory contains examples of converting yuv data to a format that can be expressed in HTML. However, I have one question on calculation of PSNR from MSE. yuvj420p とは yuv420p のフルレンジ版であり、j は JPEG からきている。レンジ設定は別にあるので、これは本来であればピクセルフォーマットに含めるべきものではない。ffmpeg としても depricated な設定だが、見かけることがあるので挙げた。フォーマットの一覧. Although the focus is on Fraps, the RGB-part applies to HFYU (bgra), ULRG (rgb24), LAGS (rgb24), or any other RGB-source as well. YUV420P to RGB Hello, I'm trying to get the linux version of the ARToolKit to work with my Philips PCVC730K webcamera (pwc/pwcx driver). FFmpegのインストールについては、以下の記事を参考にしてください。. For it is necessary to configure FFmpeg with: --enable …. It encodes a color image or video taking human perception into account, allowing …. Let’s take an AVI format video and learn how to convert it to YUV using FFmpeg. 1,你要检测当前的硬件是否支持yuv贴图,支持的话,不用转颜色空间直接贴效率高。. mjpg': Metadata: encoder : Lavf55. yuv the result seems wrong with any yuv player I've used (i …. Subject: [linux-dvb] YUV420P and YUV422 v4l capturing doesn't work; From: Marcus Daniel Date: Mon, 16 Jul 2001 15:05:32 +0200; Hi, just for completeness' sake I want to mention that v4l capture with palettes YUV420P …. These are really great Hi-Def cameras with a wide field of view and good picture quality during daylight as well as at night. In general it's expected to not have large batches of pixels at full black (0 for full range, 16 for limited range) or full white (255 for full range, 235 for limited range) because this indicates clipping. This is working well, but I saw there is some compression happening during the encoding. All gists Back to GitHub Sign in Sign up Sign in Sign up {{ …. Find out Video Resolution and Frame Rate using VLC. FFmpeg is the leading multimedia framework, able to decode, encode, transcode, mux, demux, stream, filter and play pretty much anything that humans and machines have created. forces the image file de-muxer for single image files. 1 on a Jetson AGX Xavier running JetPack 4. You may even want to consider using a 422 codec rather than a 420 (or even 444), depending on how high quality you want your jpeg. 000000, bitrate: N/A Stream #0:0: Video: h264 (Main), yuvj420p(pc, bt709, progressive), 1280x720, 29. The camera comes with pretty decent cloud support and an Android and iPhone app. shotcut February 25, 2022, 1:26am #2 pix_fmt=yuvj420p is stable, but you should also add mlt_image_format=rgb24. stores the Y plane at full size, then the V (or Cr) plane at 1/4 size, then. Transcoding says success but when i ffprobe output1. In my understanding, your ideas can be achieved in the commonly used codec pipeline too which are trying to do the same thing -- reduce the …. The AYUV format, which is a 4:4:4 format, uses 8 bits each for the Y, U, and V samples. 265/ProRes 422 HQ available when post stitching: H. 265), VP8, VP9, MPEG-1, MPEG-2, MPEG-4 and VC-1. A movie file output provides a complete file recording interface for writing media data to QuickTime movie files. js doesn't play certain mp4 files in Chrome. Thanks for contributing an answer to Video Production Stack Exchange! Please be sure to answer the question. I did some experimenting based on the answer by James Henstridge and came up with a simple PHP script that successfully split every Google Camera's motion photo I threw at it. I did manage with mp4 files as I added to my favorite profile this line 'pix_fmt=yuvj420p' but in MPEG-2 aftr adding this line 'pix_fmt=yuvj420p' after rendering I have got file yuv420p. mov, codec hvc1, pix fmt yuvj420p. GStreamer is a library for constructing graphs of media-handling components. I'm using ffmpeg for decoding a video with h264_mmal encoder. Opening an output file: output. Note: Be careful not to confuse this pixel format with PIX_FMT_YUVJ420P. A complete, cross-platform solution to record, convert and stream audio and video. Video Transcoding and Optimization for web with FFmpeg made easy. Name Description _0bgr _0bgr _0rgb _0rgb. Open H264 encoder using low-level API in device_open 2. 322911, bitrate: N/A Stream #0:0: Video: h264 (Baseline), yuvj420p(pc, bt709, progressive), 1920x1080, 25 fps, 25 tbr, 90k tbn, 50 tbc Stream #0:1: Audio: aac (LC), 48000 Hz, mono, fltp. 0 MB; upload video range = 16-235ffmpeg command line includes "-pix_fmt yuv420p"file="NFS5 zone3 …. The literal meaning of yuvj420p is "using the yuv420p of the JPEG color range, the pixel uses the range of values that represent the color. I assume that this has something to do with the pixel format, because their support varies greatly from player to player. h) be defaulted to something greater that 2048? _____ FFmpeg issue tracker <***@roundup. yuv420p has the range 16-235 whereas yuvj420p has the full range, 0 …. Description Developed based on ffmpeg 3. といった感じです。 この方法で、動画ファイルをmp4フォーマットに変換すると、MacのQuickTimeでは開くことができません。MacのQuickTimeでも開くことので出来るmp4ファイルとするためには、"-pix_fmt yuv420p…. ffmpeg pixel format definitions. You can use the format filter, or the legacy -pix_fmt option, to set the pixel format. Edit: by which I mean the difference between exporting a file that is yuv420p and exporting a file that is yuv420p tv is that one is the result of exporting with hardware encoding and the other is the result of exporting using software encoding. Changes include: Fixed potential endless loop in "A/V Decoder" node. If you are starting with either RGB images, a 10/12 bit format, or a yuvj420p format video as input, then with the libx264 codec, you would get a full range output. I used the infamous libavcodec library that is used in FFMPEG. In particular, YUV420 means that the U and V channels have half the resolution of the luma (Y) channel, in the horizontal and vertical directions. create('mjpeg', 'w') and a pix_fmt "yuvj420p". mp4 -an -c:v hevc_qsv -f rtp rtp://localhost:6004. Input #0, matroska,webm, from 'pipe:':. I have a simple question, and it may have a really simple answer due to my little knowledge about video encoding. I use crontab to better synchronize the system and I had some troubles when I was only using an endless loop. This problem is basically an issue …. When the pixel format is palettized RGB (PIX_FMT_PAL8), the palettized image data is stored in AVFrame. Thanks for that! Looks ok although I suspect a modern FFmpeg can cope without the -pix_fmt yuv420p, this was selected automagically on my own …. I'd like to know, then, what the difference. 1 2 Następne x264 在有效的视频源头部(y4m,avs,ffms,lavf)检测帧率并采用,否则使用25。本选项隐含使用 force-cfr。 如果正在使用 raw YUV 视 -. Its form code that needs to be updated, but hasn't yet. But for YUV420 we remove half of the vertical and horizontal chroma information to reduce the required bandwidth as we now have 12bit for YUV420, still 8bit for luminance but only 4bit for chroma instead of 16bit. A QVideoFrame encapsulates the pixel data of a video frame, and information about the frame. gif -f mp4 -pix_fmt yuv420p benji. Our mission is to offer the maximum possible stability andImprove your Google Pixel's battery life, performance, and look by rooting it and installing a custom …. I believe they are fixed frame rate, but perhaps I'm not reading the ffmpeg output correctly. I have encoded 1) without options and I've also tried 2) this and 3) this: ffmpeg -i src -vf "scale=in_range=pc:out_range=tv" out and this. For ffmpeg, the trick to avoid this is to use '-pix_fmt yuvj420p', which says to use the j-for-jpeg full range in a 420 YUV subsampled p-for-planar format. xx' -f image2 -vframes 1 -pix_fmt yuvj420p test. PIX_FMT_YUV420P contains three channels (or components): Y' ( luminance) channel. This means that there is a picture buffer with memory allocated …. HTTP Live Streaming (also known as HLS) is an HTTP-based media streaming communications protocol implemented by Apple Inc.